Phish 04/18/24
Sphere, Las Vegas, NV
Source Summary
flac1648 Homemade Stealth Omni's > Edirol R-09 (24-bit/48k) > Samplitude Pro X6 Suite (16-bit/48k) > FLAC/16 Recorded by Jacque Miller Mastered by Charlie Miller
Phish - April 18, 2024
Sphere - Las Vegas, NV

Recording Info:
Homemade Stealth Omni's > Edirol R-09 (24-bit/48k) >
Samplitude Pro X6 Suite (16-bit/48k) > FLAC/16
(3 Discs Audio / 1 DVD FLAC)

Recorded by Jacque Miller
Mastered by Charlie Miller
charliemiller87@earthlink.net
April 19, 2024

Notes:
-- The mics were in the aisle next to FOH
-- Mics were setup Section 207 Row 21 Seat 1

Set 1:
01 - Introduction
02 - Everything's Right
03 - Back On The Train
04 - Wolfman's Brother
05 - Maze
06 - Leaves
07 - Life Saving Gun
08 - Dirt
09 - Carini

Set 2:
10 - Tuning
11 - Sand >
12 - Tweezer >
13 - My Friend, My Friend >
14 - Mike's Song >
15 - Lifeboy
16 - Weekapaug Groove
17 - Blaze On >
18 - Fluffhead

Encore:
19 - Encore Break
20 - Farmhouse
21 - Run Like An Antelope


SHNTOOL OUTPUT:
    length     expanded size    cdr  WAVE problems  fmt   ratio  filename
     1:49.262      20978368 B   cxx   --   ---xx   flac  0.4171  01 Introduction.flac
    14:16.591     164465608 B   cxx   --   ---xx   flac  0.4716  02 Everything's Right.flac
     7:58.072      91789884 B   cxx   --   ---xx   flac  0.4734  03 Back On The Train.flac
    16:33.464     190745128 B   cxx   --   ---xx   flac  0.4616  04 Wolfman's Brother.flac
     9:27.734     109004884 B   cxx   --   ---xx   flac  0.4713  05 Maze.flac
    10:20.941     119220632 B   cxx   --   ---xx   flac  0.4426  06 Leaves.flac
    17:19.440     199572452 B   cxx   --   ---xx   flac  0.4937  07 Life Saving Gun.flac
     4:43.368      54406640 B   cxx   --   ---xx   flac  0.3932  08 Dirt.flac
     9:11.182     105827040 B   cxx   --   ---xx   flac  0.4942  09 Carini.flac
     0:37.751       7248216 B   cxx   --   ---xx   flac  0.3734  10 Tuning.flac
    19:20.576     222830724 B   cxx   --   ---xx   flac  0.4779  11 Sand.flac
    25:18.616     291574280 B   cxx   --   ---xx   flac  0.4834  12 Tweezer.flac
     9:47.105     112724264 B   cxx   --   ---xx   flac  0.4875  13 My Friend, My Friend.flac
     8:15.852      95203712 B   cxx   --   ---xx   flac  0.4874  14 Mike's Song.flac
    10:05.565     116268468 B   cxx   --   ---xx   flac  0.4029  15 Lifeboy.flac
     6:23.283      73590320 B   cxx   --   ---xx   flac  0.4937  16 Weekapaug Groove.flac
     9:38.934     111155284 B   cxx   --   ---xx   flac  0.4755  17 Blaze On.flac
    16:16.296     187448800 B   cxx   --   ---xx   flac  0.4778  18 Fluffhead.flac
     3:13.904      37229572 B   cxx   --   ---xx   flac  0.3978  19 Encore Break.flac
     6:23.560      73643636 B   cxx   --   ---xx   flac  0.4043  20 Farmhouse.flac
    10:48.204     124455228 B   cxx   --   ---xx   flac  0.4789  21 Run Like An Antelope.flac
   217:49.699    2509383140 B                            0.4684  (21 files)

ffp
01 Introduction.flac:49cf5f57da34f70186d85f30a69310c5
02 Everything's Right.flac:ce2035e92d94888bbcf890832e167e01
03 Back On The Train.flac:300ccb18724ee0df3bbffc517380ee32
04 Wolfman's Brother.flac:a61059944763c73ab4dcf1ae7b16b294
05 Maze.flac:4bea580ea90a0df81916b07d40903dc5
06 Leaves.flac:575197d2f77b8254a21b40845028064c
07 Life Saving Gun.flac:6e1786edcd0dd6ad519bd6af84bff753
08 Dirt.flac:7e5421dc59bd41566cabe8f7095d25d1
09 Carini.flac:72263d07ced41f7085bdc84bef03b22f
10 Tuning.flac:8a4a002c6431ad3ab8b0f987e1cc36aa
11 Sand.flac:6f2bcdfed8f4fac9025131c7643b93ed
12 Tweezer.flac:4ff07d00393588eafdb9532c134146c1
13 My Friend, My Friend.flac:6a5a273843da0983f3ab4f88e4c98593
14 Mike's Song.flac:4cd7ea3c9befc059789fac6ee746cda3
15 Lifeboy.flac:54e3d6f5c483e299e9d94985b11305dc
16 Weekapaug Groove.flac:4bc2036f1b8093f603c46ccc56a7120c
17 Blaze On.flac:89149111e86efe22eaa54a848dcb8cd3
18 Fluffhead.flac:50e1c4467865c2a49419e33d816332b9
19 Encore Break.flac:8722af0f38619eb91e640b92a6e08ab9
20 Farmhouse.flac:2e50bed2a0c388c601dcd5e5ae4f74ca
21 Run Like An Antelope.flac:137feb0f78ef7f547d9087edc886025d
51e5fe321bd74db6c6d832718871cbe6 *01 Introduction.flac
e361cc525f942e33ae335e36d7f538ae *02 Everything's Right.flac
a5b6feb6d4acbde5df183b4168217d34 *03 Back On The Train.flac
5a3420c902440e2c053f353021bb0e42 *04 Wolfman's Brother.flac
ca5103ccb6a0ef6ede98d8b8d9080f94 *05 Maze.flac
1e8dd8bbabb6157b5d314ecf5721f826 *06 Leaves.flac
bfa85c8856eeb4510a55fc97276c9a8c *07 Life Saving Gun.flac
cfaf394d6a6b3e81b1e579dcfff53d5d *08 Dirt.flac
23c22abd06aefb02402ff443a2d861ba *09 Carini.flac
24323496b8b9a63998b17779fa17eed3 *10 Tuning.flac
a9dc472d30cd1a426b334e7c809f41de *11 Sand.flac
195a3811e14ed4dd21e2104ac479c5b2 *12 Tweezer.flac
5416c43932639c915b0963e6e7a586ec *13 My Friend, My Friend.flac
1a77403cd5154fd32702a92394fe787d *14 Mike's Song.flac
e7bc15baabacb6a5ecb1342439d7242c *15 Lifeboy.flac
587ea5537e62e4e1e3a0909d1822a9af *16 Weekapaug Groove.flac
7e1804f4b39048a2fa26617fa1239f7d *17 Blaze On.flac
4970094f714a829af09aaca3d7bca9c6 *18 Fluffhead.flac
24ff56e823bdd666bc5e5c1ebd946353 *19 Encore Break.flac
69e66a4426737ee5be53deda2370e5a0 *20 Farmhouse.flac
b2bb763c066b7e4a29e28662196bb331 *21 Run Like An Antelope.flac

Comments
etreedb.org
For administrative requests email contact@etreedb.org
This website written by Tom H Anderson and maintained by the etreedb.org community.

Cached: Thu, 20 Jun 2024 10:41:32 EDT