Phish 04/18/24
Sphere, Las Vegas, NV
Source Summary
flac1648 Schoeps CMC6/MK4 > Sound Devices 744T (24-bit/96k) > Samplitude Pro X6 Suite (16-bit/48k) > FLAC/16 Recorded by Charlie Miller
Phish - April 18, 2024
Sphere - Las Vegas, NV

Recording Info:
Schoeps CMC6/MK4 > Sound Devices 744T (24-bit/96k) >
Samplitude Pro X6 Suite (16-bit/48k) > FLAC/16
(3 Discs Audio / 1 DVD FLAC)

Recorded by Charlie Miller
charliemiller87@earthlink.net
April 19, 2024

Notes:
-- The mics were in the aisle next to FOH
-- Mics were setup Section 207 Row 21 Seat 1

Set 1:
01 - Introduction
02 - Everything's Right
03 - Back On The Train
04 - Wolfman's Brother
05 - Maze
06 - Leaves
07 - Life Saving Gun
08 - Dirt
09 - Carini

Set 2:
10 - Tuning
11 - Sand >
12 - Tweezer >
13 - My Friend, My Friend >
14 - Mike's Song >
15 - Lifeboy
16 - Weekapaug Groove
17 - Blaze On >
18 - Fluffhead

Encore:
19 - Encore Break
20 - Farmhouse
21 - Run Like An Antelope


SHNTOOL OUTPUT:
    length     expanded size    cdr  WAVE problems  fmt   ratio  filename
     1:58.696      22789612 B   cxx   --   ---xx   flac  0.4130  01 Introduction.flac
    14:16.591     164465608 B   cxx   --   ---xx   flac  0.4847  02 Everything's Right.flac
     7:58.072      91789884 B   cxx   --   ---xx   flac  0.4858  03 Back On The Train.flac
    16:33.464     190745128 B   cxx   --   ---xx   flac  0.4704  04 Wolfman's Brother.flac
     9:27.734     109004884 B   cxx   --   ---xx   flac  0.4794  05 Maze.flac
    10:20.941     119220632 B   cxx   --   ---xx   flac  0.4501  06 Leaves.flac
    17:19.440     199572452 B   cxx   --   ---xx   flac  0.5041  07 Life Saving Gun.flac
     4:43.368      54406640 B   cxx   --   ---xx   flac  0.4102  08 Dirt.flac
     9:14.695     106501536 B   cxx   --   ---xx   flac  0.4938  09 Carini.flac
     0:41.464       7961120 B   cxx   --   ---xx   flac  0.3791  10 Tuning.flac
    19:21.064     222924392 B   cxx   --   ---xx   flac  0.4789  11 Sand.flac
    25:14.337     290752792 B   cxx   --   ---xx   flac  0.4849  12 Tweezer.flac
     9:51.290     113527816 B   cxx   --   ---xx   flac  0.4892  13 My Friend, My Friend.flac
     8:15.918      95216340 B   cxx   --   ---xx   flac  0.4887  14 Mike's Song.flac
    10:04.299     116025516 B   cxx   --   ---xx   flac  0.3997  15 Lifeboy.flac
     6:24.581      73839548 B   cxx   --   ---xx   flac  0.4958  16 Weekapaug Groove.flac
     9:38.814     111132268 B   cxx   --   ---xx   flac  0.4753  17 Blaze On.flac
    16:15.769     187347784 B   cxx   --   ---xx   flac  0.4785  18 Fluffhead.flac
     4:20.505      50016948 B   cxx   --   ---xx   flac  0.3977  19 Encore Break.flac
     6:23.404      73613684 B   cxx   --   ---xx   flac  0.4015  20 Farmhouse.flac
    10:52.553     125290296 B   cxx   --   ---xx   flac  0.4797  21 Run Like An Antelope.flac
   219:17.000    2526144880 B                            0.4721  (21 files)

ffp
01 Introduction.flac:c5664c05d5700967eff2f430e668f255
02 Everything's Right.flac:041f2fd41b83ae23fe03b2ae370afa3a
03 Back On The Train.flac:a927843e02872d16a35b007ecb8f9611
04 Wolfman's Brother.flac:e56fa792b5bdae2f37cbadb01324cc3d
05 Maze.flac:58ee85a0a5b83a89f8ff8cbaeaec86b2
06 Leaves.flac:7dc16448f5b6fff72797243111f19386
07 Life Saving Gun.flac:82d915373814b5eb23d5620e813003a0
08 Dirt.flac:f4dee6ca872ee476414940983fec9b27
09 Carini.flac:3b31969e91bcc8147ac68399cdba207a
10 Tuning.flac:5a108208919605b3db5da07c27effa00
11 Sand.flac:ce99e8ce0206324231bfd1970e6b2eee
12 Tweezer.flac:5a758b60220f7e7f4ff0911fca7e0a7f
13 My Friend, My Friend.flac:94cb0ef4ee8d86b7594fd1b8288b1344
14 Mike's Song.flac:2cdcd3aae780675928055996eecdf46c
15 Lifeboy.flac:f19efbdec0ea30ce37d56a4bf8a5c741
16 Weekapaug Groove.flac:0b0a2692d2ae3d0d225a50a9ecdd409c
17 Blaze On.flac:0e62c33a06ab39e029ee0799d2593e9f
18 Fluffhead.flac:e4ff12a836ef643eec406eff4ec71d8e
19 Encore Break.flac:222b10474754cf39feb5643fb3177fd3
20 Farmhouse.flac:2fea6bd8677ac8a2dbbfe8f9f05939d6
21 Run Like An Antelope.flac:ee8c059756675ae03dc0d313711430ee
51ac2becb463ff518da0afd0679de8b9 *01 Introduction.flac
d18735b369fa1c10c71977b84e84c9f1 *02 Everything's Right.flac
3669fd09554153d18bea4a05a0c640a1 *03 Back On The Train.flac
fcc164aef510d415d93e156eb51a2714 *04 Wolfman's Brother.flac
379761ca497e9c80b4efb4cfda435892 *05 Maze.flac
14b4646bc24661a7de4f62361ac1b55c *06 Leaves.flac
3dd9fb99eb61643b23961984c6995d49 *07 Life Saving Gun.flac
9369f5bfb43867703b8461b6e36d7b0f *08 Dirt.flac
fd6bad51cfd267eefbec0e6bc351172c *09 Carini.flac
8621a2430bf8f695bd12c2793929bd30 *10 Tuning.flac
85e8c8bcabb8394071376753bae13bbd *11 Sand.flac
7b93ad35c02ea64f3cc082491c0de55f *12 Tweezer.flac
57c0753bfac92ccc5f35b2f6df1023ec *13 My Friend, My Friend.flac
5be140f8f3cd8670a92dd228a979f741 *14 Mike's Song.flac
6386c8dc54bdcf37eeff73b38d05ea40 *15 Lifeboy.flac
dd6f32ae08293117d865d6332c34792a *16 Weekapaug Groove.flac
6b341c284c89203531b4366951de7614 *17 Blaze On.flac
ff8f3ea5b0dd5c99783341d12ee6f561 *18 Fluffhead.flac
e1369cf80b76b829c883289fde0cfe0a *19 Encore Break.flac
4e457d0664b5da5ea15b88569ea4e37f *20 Farmhouse.flac
41e5be7de9cf5636d8d9ec0a27ea90f9 *21 Run Like An Antelope.flac

Comments
etreedb.org
For administrative requests email contact@etreedb.org
This website written by Tom H Anderson and maintained by the etreedb.org community.

Cached: Thu, 20 Jun 2024 12:36:01 EDT