Phish 04/18/24
Sphere, Las Vegas, NV
Source Summary
flac2496 Schoeps CMC6/MK4 > Sound Devices 744T (24-bit/96k) > Samplitude Pro X6 Suite > FLAC/24 Recorded by Charlie Miller
Phish - April 18, 2024
Sphere - Las Vegas, NV

Recording Info:
Schoeps CMC6/MK4 > Sound Devices 744T (24-bit/96k) >
Samplitude Pro X6 Suite > FLAC/24
(1 DVD FLAC)

Recorded by Charlie Miller
charliemiller87@earthlink.net
April 19, 2024

Notes:
-- The mics were in the aisle next to FOH
-- Mics were setup Section 207 Row 21 Seat 1

Set 1:
01 - Introduction
02 - Everything's Right
03 - Back On The Train
04 - Wolfman's Brother
05 - Maze
06 - Leaves
07 - Life Saving Gun
08 - Dirt
09 - Carini

Set 2:
10 - Tuning
11 - Sand >
12 - Tweezer >
13 - My Friend, My Friend >
14 - Mike's Song >
15 - Lifeboy
16 - Weekapaug Groove
17 - Blaze On >
18 - Fluffhead

Encore:
19 - Encore Break
20 - Farmhouse
21 - Run Like An Antelope


SHNTOOL OUTPUT:
    length     expanded size    cdr  WAVE problems  fmt   ratio  filename
     1:58.696      68368754 B   cxx   --   ---xx   flac  0.4908  01 Introduction.flac
    14:16.591     493396742 B   cxx   --   ---xx   flac  0.5291  02 Everything's Right.flac
     7:58.072     275369564 B   cxx   --   ---xx   flac  0.5304  03 Back On The Train.flac
    16:33.464     572235296 B   cxx   --   ---xx   flac  0.5198  04 Wolfman's Brother.flac
     9:27.734     327014570 B   cxx   --   ---xx   flac  0.5253  05 Maze.flac
    10:20.941     357661814 B   cxx   --   ---xx   flac  0.5076  06 Leaves.flac
    17:19.440     598717274 B   cxx   --   ---xx   flac  0.5403  07 Life Saving Gun.flac
     4:43.368     163219832 B   cxx   --   ---xx   flac  0.4912  08 Dirt.flac
     9:14.695     319504526 B   cxx   --   ---xx   flac  0.5324  09 Carini.flac
     0:41.464      23883272 B   cxx   --   ---xx   flac  0.4655  10 Tuning.flac
    19:21.064     668773094 B   cxx   --   ---xx   flac  0.5240  11 Sand.flac
    25:14.337     872258294 B   cxx   --   ---xx   flac  0.5286  12 Tweezer.flac
     9:51.290     340583366 B   cxx   --   ---xx   flac  0.5315  13 My Friend, My Friend.flac
     8:15.918     285648932 B   cxx   --   ---xx   flac  0.5311  14 Mike's Song.flac
    10:04.299     348076466 B   cxx   --   ---xx   flac  0.4787  15 Lifeboy.flac
     6:24.581     221518556 B   cxx   --   ---xx   flac  0.5338  16 Weekapaug Groove.flac
     9:38.814     333396722 B   cxx   --   ---xx   flac  0.5218  17 Blaze On.flac
    16:15.769     562043270 B   cxx   --   ---xx   flac  0.5244  18 Fluffhead.flac
     4:20.505     150050756 B   cxx   --   ---xx   flac  0.4793  19 Encore Break.flac
     6:23.404     220840964 B   cxx   --   ---xx   flac  0.4827  20 Farmhouse.flac
    10:52.553     375870806 B   cxx   --   ---xx   flac  0.5264  21 Run Like An Antelope.flac
   219:17.000    7578432870 B                            0.5213  (21 files)

ffp
01 Introduction.flac:5c92c310e93ba5ee4cbc0c3def97c717
02 Everything's Right.flac:f5cc74c74fc71f0b2b26adbd40196329
03 Back On The Train.flac:947d89fec450db58766fd2c7593ad302
04 Wolfman's Brother.flac:a03436d9720b418a5afa6e807d826ea7
05 Maze.flac:76d9f1530236d10b3662fb17fc0a8f87
06 Leaves.flac:4701c2253e0905a38288c8c4cd9cedf8
07 Life Saving Gun.flac:13a1f0fae8a3d41dfde883c395558ae2
08 Dirt.flac:563debb1cc06019d9c5fc72b23303640
09 Carini.flac:499f22684687bd00938b210b3ca8a2f6
10 Tuning.flac:b6c2e530fb7cac45ef1ae500a7435e7c
11 Sand.flac:ca491401d659570359a11df73e40e311
12 Tweezer.flac:251484640461cdac362877e929df01db
13 My Friend, My Friend.flac:549b494a00794befbacd72a9ee79eec2
14 Mike's Song.flac:651cb52d017f19e78ab912f078a5bd8b
15 Lifeboy.flac:53621c0a77ddd90ddc5c3da0d8b81f8b
16 Weekapaug Groove.flac:652a24c148c03176e335ba0b8ded62fe
17 Blaze On.flac:14143cd2da96e7a4cdabb0fb8e097693
18 Fluffhead.flac:33237047b5815d4738334d686dc22fa3
19 Encore Break.flac:f7bf2011d60dacf67efbf4521a1aea6a
20 Farmhouse.flac:571ba7b3b0cb50c66dde4e0cf05678d2
21 Run Like An Antelope.flac:e1cf1112cdb3d984c9e003c8bf9f9da3
0e434ca551928764aabf90ae9ce87f23 *01 Introduction.flac
c46b1f44efac39e888b16daf9ad87b23 *02 Everything's Right.flac
be83a08e205217e6163d8bb14761bcb5 *03 Back On The Train.flac
2b78780442f62d13fadf444df7c8eb3c *04 Wolfman's Brother.flac
92e2e9a42834a1f69459696cf8414dfa *05 Maze.flac
319b1ac52bf3d6b0e78e5ac16425f7c6 *06 Leaves.flac
986f3c1abfb0454c5aacf8d417fdb5c6 *07 Life Saving Gun.flac
396c6e59d12ba9063a33a3c0b878dc81 *08 Dirt.flac
f39f181de335912a917cbd5eedb560a2 *09 Carini.flac
b77385b8762ca0a218b81f498ad5e60f *10 Tuning.flac
ac562e4d663983dbcc96640235c04b63 *11 Sand.flac
7ecc8c9b9115d89c1b91b66fde8d36b8 *12 Tweezer.flac
7144979346638914fca1d9c2676eb351 *13 My Friend, My Friend.flac
19fe30bd7b4717b90ff487d4d3b621e3 *14 Mike's Song.flac
8c2547e368fe1b16d88acfa8dabd9157 *15 Lifeboy.flac
28cd77e14680302bdfabb4328dca398f *16 Weekapaug Groove.flac
f17b00c860242546a17f3633916a3580 *17 Blaze On.flac
d9e319f20235de6d8b05c285a862c3e7 *18 Fluffhead.flac
0028cedb4857bc73feb3153c224eca47 *19 Encore Break.flac
cedcd9802e38ad53fb6b6ebb8a8f36fe *20 Farmhouse.flac
603131cb16631643e4f4ecf0b84f5242 *21 Run Like An Antelope.flac

Comments
etreedb.org
For administrative requests email contact@etreedb.org
This website written by Tom H Anderson and maintained by the etreedb.org community.

Cached: Thu, 30 May 2024 09:02:15 EDT