Phish 04/18/24
Sphere, Las Vegas, NV
Source Summary
flac1648 MK22 > Schoeps CMC 1K > Sound Devices 744T (24-bit/96k) > Samplitude Pro X6 Suite (16-bit/48k) > FLAC/16 Recorded by Duncan Oldham Mastered by Charlie Miller
Phish - April 18, 2024
Sphere - Las Vegas, NV

Recording Info:
Schoeps MK22 > Schoeps CMC 1K > Sound Devices 744T (24-bit/96k) >
Samplitude Pro X6 Suite (16-bit/48k) > FLAC/16
(3 Discs Audio / 1 DVD FLAC)

Recorded by Duncan Oldham
Mastered by Charlie Miller
charliemiller87@earthlink.net
April 19, 2024

Notes:
-- Mics were setup Section 207 Row 21 Seat 1

Set 1:
01 - Introduction
02 - Everything's Right
03 - Back On The Train
04 - Wolfman's Brother
05 - Maze
06 - Leaves
07 - Life Saving Gun
08 - Dirt
09 - Carini

Set 2:
10 - Tuning
11 - Sand >
12 - Tweezer >
13 - My Friend, My Friend >
14 - Mike's Song >
15 - Lifeboy
16 - Weekapaug Groove
17 - Blaze On >
18 - Fluffhead

Encore:
19 - Encore Break
20 - Farmhouse
21 - Run Like An Antelope


SHNTOOL OUTPUT:
    length     expanded size    cdr  WAVE problems  fmt   ratio  filename
     1:38.130      18841000 B   cxx   --   ---xx   flac  0.3970  01 Introduction.flac
    14:16.592     164465720 B   cxx   --   ---xx   flac  0.4732  02 Everything's Right.flac
     7:57.890      91754952 B   cxx   --   ---xx   flac  0.4746  03 Back On The Train.flac
    16:33.757     190801444 B   cxx   --   ---xx   flac  0.4632  04 Wolfman's Brother.flac
     9:27.714     109001200 B   cxx   --   ---xx   flac  0.4704  05 Maze.flac
    10:21.315     119292560 B   cxx   --   ---xx   flac  0.4411  06 Leaves.flac
    17:19.209     199528256 B   cxx   --   ---xx   flac  0.4935  07 Life Saving Gun.flac
     4:43.286      54390888 B   cxx   --   ---xx   flac  0.3897  08 Dirt.flac
     8:58.768     103443548 B   cxx   --   ---xx   flac  0.4968  09 Carini.flac
     0:43.953       8439080 B   cxx   --   ---xx   flac  0.3681  10 Tuning.flac
    19:20.667     222848072 B   cxx   --   ---xx   flac  0.4664  11 Sand.flac
    25:16.797     291225156 B   cxx   --   ---xx   flac  0.4721  12 Tweezer.flac
     9:48.663     113023392 B   cxx   --   ---xx   flac  0.4769  13 My Friend, My Friend.flac
     8:16.437      95315884 B   cxx   --   ---xx   flac  0.4760  14 Mike's Song.flac
    10:04.559     116075412 B   cxx   --   ---xx   flac  0.3894  15 Lifeboy.flac
     6:24.089      73745176 B   cxx   --   ---xx   flac  0.4823  16 Weekapaug Groove.flac
     9:38.670     111104772 B   cxx   --   ---xx   flac  0.4635  17 Blaze On.flac
    16:16.212     187432752 B   cxx   --   ---xx   flac  0.4664  18 Fluffhead.flac
     4:19.991      49918400 B   cxx   --   ---xx   flac  0.3874  19 Encore Break.flac
     6:21.339      73217076 B   cxx   --   ---xx   flac  0.3906  20 Farmhouse.flac
    10:30.829     121119208 B   cxx   --   ---xx   flac  0.4702  21 Run Like An Antelope.flac
   218:18.870    2514983948 B                            0.4615  (21 files)

ffp
01 Introduction.flac:68f98806649c82f12f7f74ab255af82d
02 Everything's Right.flac:52819c71833770d742870ac7be6198d3
03 Back On The Train.flac:228332835aaceab4958c596916ee2aae
04 Wolfman's Brother.flac:602454cac16a96b2ef6e66cd7a8171bd
05 Maze.flac:6c0b4ac676d6c6312d457c7b6c57f7c3
06 Leaves.flac:1aa46f3368d9d015af971edef9f8045a
07 Life Saving Gun.flac:eea4fc56d410f97246b2ffdadb3e27fc
08 Dirt.flac:4ca49b41399a360a0cb582dd0f9a6e49
09 Carini.flac:484cfeb236644c909c834ee7c8ae6ba6
10 Tuning.flac:f3ea8d58623e7ac4a17f922b888791d9
11 Sand.flac:531239c4927e46015c98ef076dbb9c20
12 Tweezer.flac:dd71fef5869a748bf06674b407b20322
13 My Friend, My Friend.flac:ed8ffcee7fd11f5af77f88ae399a8ae6
14 Mike's Song.flac:20697231b653209818d2ea364321fb9c
15 Lifeboy.flac:554bea5c9a64135cb919744cd267aee5
16 Weekapaug Groove.flac:c0a3ef730f7224585b88880f89f2a508
17 Blaze On.flac:9fe801f5c927c898f60ca7337738b72e
18 Fluffhead.flac:6b908230185dbc1ad2903f040e8a4860
19 Encore Break.flac:bc1aec13d07bea4f8da8262457a6f068
20 Farmhouse.flac:9a759c205bc6e5ea474534312a40c21a
21 Run Like An Antelope.flac:efc77e68c1b13f2f544889362b0f9768

Comments
etreedb.org
For administrative requests email contact@etreedb.org
This website written by Tom H Anderson and maintained by the etreedb.org community.

Cached: Thu, 30 May 2024 08:01:57 EDT