Phish 04/18/24
Sphere, Las Vegas, NV
Source Summary
flac1648 CCM-1/MK41V > Zoom F3 (32-bit Float/48k) > Samplitude Pro X6 Suite (16-bit/48k) > FLAC/24 Recorded by Duncan Oldham Mastered by Charlie Miller
Phish - April 18, 2024
Sphere - Las Vegas, NV

Recording Info:
Schoeps CCM-1/MK41V > Zoom F3 (32-bit Float/48k) >
Samplitude Pro X6 Suite (16-bit/48k) > FLAC/24
(3 Discs Audio / 1 DVD FLAC)

Recorded by Duncan Oldham
Mastered by Charlie Miller
charliemiller87@earthlink.net
April 19, 2024

Notes:
-- Mics were setup Section 207 Row 21 Seat 1

Set 1:
01 - Introduction
02 - Everything's Right
03 - Back On The Train
04 - Wolfman's Brother
05 - Maze
06 - Leaves
07 - Life Saving Gun
08 - Dirt
09 - Carini

Set 2:
10 - Tuning
11 - Sand >
12 - Tweezer >
13 - My Friend, My Friend >
14 - Mike's Song >
15 - Lifeboy
16 - Weekapaug Groove
17 - Blaze On >
18 - Fluffhead

Encore:
19 - Encore Break
20 - Farmhouse
21 - Run Like An Antelope


SHNTOOL OUTPUT:
    length     expanded size    cdr  WAVE problems  fmt   ratio  filename
     2:06.280      24245788 B   cxx   --   ---xx   flac  0.4084  01 Introduction.flac
    14:16.595     164466244 B   cxx   --   ---xx   flac  0.4860  02 Everything's Right.flac
     7:58.063      91788180 B   cxx   --   ---xx   flac  0.4861  03 Back On The Train.flac
    16:33.120     190679008 B   cxx   --   ---xx   flac  0.4744  04 Wolfman's Brother.flac
     9:28.052     109065980 B   cxx   --   ---xx   flac  0.4732  05 Maze.flac
    10:21.032     119238200 B   cxx   --   ---xx   flac  0.4468  06 Leaves.flac
    17:19.380     199561036 B   cxx   --   ---xx   flac  0.4994  07 Life Saving Gun.flac
     4:43.428      54418256 B   cxx   --   ---xx   flac  0.3965  08 Dirt.flac
     9:51.206     113511536 B   cxx   --   ---xx   flac  0.4934  09 Carini.flac
     0:54.125      10392136 B   cxx   --   ---xx   flac  0.3721  10 Tuning.flac
    19:21.026     222917100 B   cxx   --   ---xx   flac  0.4777  11 Sand.flac
    25:11.889     290282648 B   cxx   --   ---xx   flac  0.4835  12 Tweezer.flac
     9:53.584     113968168 B   cxx   --   ---xx   flac  0.4885  13 My Friend, My Friend.flac
     8:15.221      95082508 B   cxx   --   ---xx   flac  0.4873  14 Mike's Song.flac
    10:04.828     116126976 B   cxx   --   ---xx   flac  0.4027  15 Lifeboy.flac
     6:24.893      73899492 B   cxx   --   ---xx   flac  0.4946  16 Weekapaug Groove.flac
     9:38.657     111102216 B   cxx   --   ---xx   flac  0.4743  17 Blaze On.flac
    16:16.385     187465908 B   cxx   --   ---xx   flac  0.4781  18 Fluffhead.flac
     4:19.914      49903500 B   cxx   --   ---xx   flac  0.3910  19 Encore Break.flac
     6:24.302      73786052 B   cxx   --   ---xx   flac  0.4050  20 Farmhouse.flac
    10:36.063     122124140 B   cxx   --   ---xx   flac  0.4793  21 Run Like An Antelope.flac
   219:58.042    2534025072 B                            0.4709  (21 files)

ffp
01 Introduction.flac:7d144aa4ea9a8e2bb9bcb159fcb51777
02 Everything's Right.flac:05099cf295634e7b55263dcfe39d8e24
03 Back On The Train.flac:48c866df2d365be66085bc24193b9f11
04 Wolfman's Brother.flac:c09f51e76f9715cc0385ca7468889b68
05 Maze.flac:8bc82bf3d6d38cf1b8acd35e9e00d905
06 Leaves.flac:9faf6bbe44ae4f3418305bad9519be16
07 Life Saving Gun.flac:63cd1928f72a8f75b16984ee8a0d3a85
08 Dirt.flac:fda4c4d1f2c3cb68cd1bdf3df9f7ec71
09 Carini.flac:c76334a8310c65488c304b1ad639cab2
10 Tuning.flac:fb7f4da25b5737c413140d33846b3e99
11 Sand.flac:02bf6c47133930a17ca92416cb63340f
12 Tweezer.flac:bd33079aac682626bf335f26af2b0fb0
13 My Friend, My Friend.flac:5d387a532ab30b172a7ccf987a1e2b4c
14 Mike's Song.flac:e78314bc25d595e73a9ca4e07c4e25ef
15 Lifeboy.flac:3475dcff051b2be2b7a886c235cd2379
16 Weekapaug Groove.flac:950dbb32704b60c8dda2c2a8f384308e
17 Blaze On.flac:5989333b26e774f44d62a6d455bbbaa3
18 Fluffhead.flac:2c3c4f29533b89ff2d4123722c9fe362
19 Encore Break.flac:20084d4ca2587b23b89c9b5cd5b4f601
20 Farmhouse.flac:4e45a428cdb744fce39506051c83fdca
21 Run Like An Antelope.flac:cbb9479f6aa9821e48a5d7451178b49d

Comments
etreedb.org
For administrative requests email contact@etreedb.org
This website written by Tom H Anderson and maintained by the etreedb.org community.

Cached: Thu, 20 Jun 2024 11:43:14 EDT