Phish 04/18/24
Sphere, Las Vegas, NV
Source Summary
flac2448 CCM-1/MK41V > Zoom F3 (32-bit Float/48k) > Samplitude Pro X6 Suite (24-bit/48k) > FLAC/24; Recorded by Duncan Oldham Mastered by Charlie Miller
Phish - April 18, 2024
Sphere - Las Vegas, NV

Recording Info:
Schoeps CCM-1/MK41V > Zoom F3 (32-bit Float/48k) >
Samplitude Pro X6 Suite (24-bit/48k) > FLAC/24
(1 DVD FLAC)

Recorded by Duncan Oldham
Mastered by Charlie Miller
charliemiller87@earthlink.net
April 19, 2024

Notes:
-- Mics were setup Section 207 Row 21 Seat 1

Set 1:
01 - Introduction
02 - Everything's Right
03 - Back On The Train
04 - Wolfman's Brother
05 - Maze
06 - Leaves
07 - Life Saving Gun
08 - Dirt
09 - Carini

Set 2:
10 - Tuning
11 - Sand >
12 - Tweezer >
13 - My Friend, My Friend >
14 - Mike's Song >
15 - Lifeboy
16 - Weekapaug Groove
17 - Blaze On >
18 - Fluffhead

Encore:
19 - Encore Break
20 - Farmhouse
21 - Run Like An Antelope


SHNTOOL OUTPUT:
    length     expanded size    cdr  WAVE problems  fmt   ratio  filename
     2:06.280      36368660 B   cxx   --   ---xx   flac  0.5847  01 Introduction.flac
    14:16.595     246699344 B   cxx   --   ---xx   flac  0.6415  02 Everything's Right.flac
     7:58.063     137682248 B   cxx   --   ---xx   flac  0.6406  03 Back On The Train.flac
    16:33.120     286018490 B   cxx   --   ---xx   flac  0.6329  04 Wolfman's Brother.flac
     9:28.052     163598948 B   cxx   --   ---xx   flac  0.6311  05 Maze.flac
    10:21.032     178857278 B   cxx   --   ---xx   flac  0.6117  06 Leaves.flac
    17:19.380     299341532 B   cxx   --   ---xx   flac  0.6494  07 Life Saving Gun.flac
     4:43.428      81627362 B   cxx   --   ---xx   flac  0.5751  08 Dirt.flac
     9:51.206     170267282 B   cxx   --   ---xx   flac  0.6463  09 Carini.flac
     0:54.125      15588182 B   cxx   --   ---xx   flac  0.5567  10 Tuning.flac
    19:21.026     334375628 B   cxx   --   ---xx   flac  0.6341  11 Sand.flac
    25:11.889     435423950 B   cxx   --   ---xx   flac  0.6387  12 Tweezer.flac
     9:53.584     170952230 B   cxx   --   ---xx   flac  0.6424  13 My Friend, My Friend.flac
     8:15.221     142623740 B   cxx   --   ---xx   flac  0.6413  14 Mike's Song.flac
    10:04.828     174190442 B   cxx   --   ---xx   flac  0.5812  15 Lifeboy.flac
     6:24.893     110849216 B   cxx   --   ---xx   flac  0.6462  16 Weekapaug Groove.flac
     9:38.657     166653302 B   cxx   --   ---xx   flac  0.6321  17 Blaze On.flac
    16:16.385     281198840 B   cxx   --   ---xx   flac  0.6348  18 Fluffhead.flac
     4:19.914      74855228 B   cxx   --   ---xx   flac  0.5725  19 Encore Break.flac
     6:24.302     110679056 B   cxx   --   ---xx   flac  0.5830  20 Farmhouse.flac
    10:36.063     183186188 B   cxx   --   ---xx   flac  0.6358  21 Run Like An Antelope.flac
   219:58.042    3801037146 B                            0.6297  (21 files)

ffp
01 Introduction.flac:d91603cf82cc40e3aa04336bf55daa1d
02 Everything's Right.flac:8d2b96a8a54907acc5c61269e7746177
03 Back On The Train.flac:49ad59bdd2fe3549d8925b5021c89a28
04 Wolfman's Brother.flac:e2f050d1d2e89104aafecc7b79eba795
05 Maze.flac:2344d5c00ea91a462b0c9a5972277b2a
06 Leaves.flac:157cfb749dff821b4ae263122bc83358
07 Life Saving Gun.flac:a797371608d5b763b451f4109bb9d6f4
08 Dirt.flac:46a5d24e121f05d503178b93e95e38bd
09 Carini.flac:6f0bdd6675ccc2d78f4fcb1fe86b1c6e
10 Tuning.flac:62c8bd94442a7fe81e2210b90faacc11
11 Sand.flac:93f5af034f9895c7457f2313e4306392
12 Tweezer.flac:b74828230b96942ec7d1555d5e3eedf5
13 My Friend, My Friend.flac:2b42d87c0b7d9e19ef718ccc49d6e152
14 Mike's Song.flac:44170e05db7d18179b38e83d05787571
15 Lifeboy.flac:9bf2473c4482113352dbd2a833c27988
16 Weekapaug Groove.flac:d78ba7bc07cc1e3295b4103a17229408
17 Blaze On.flac:fda7b9f9780d0daf3f89089bfe02ffb3
18 Fluffhead.flac:ddd0779976e313796dbd7f3037f4da20
19 Encore Break.flac:85bf42102d353d1afaaf5b5be12a4177
20 Farmhouse.flac:08e15c99a854674f022359eecdc190da
21 Run Like An Antelope.flac:c9c9ff27a35b9959899c039d77139b5b

Comments
etreedb.org
For administrative requests email contact@etreedb.org
This website written by Tom H Anderson and maintained by the etreedb.org community.

Cached: Thu, 20 Jun 2024 10:37:03 EDT