Phish 04/18/24
Sphere, Las Vegas, NV
Source Summary
flac2496 MK22 > Schoeps CMC 1K > Sound Devices 744T (24-bit/96k) > Samplitude Pro X6 Suite > FLAC/24; Recorded by Duncan Oldham Mastered by Charlie Miller
Phish - April 18, 2024
Sphere - Las Vegas, NV

Recording Info:
Schoeps MK22 > Schoeps CMC 1K > Sound Devices 744T (24-bit/96k) >
Samplitude Pro X6 Suite > FLAC/24
(1 DVD FLAC)

Recorded by Duncan Oldham
Mastered by Charlie Miller
charliemiller87@earthlink.net
April 19, 2024

Notes:
-- Mics were setup Section 207 Row 21 Seat 1

Set 1:
01 - Introduction
02 - Everything's Right
03 - Back On The Train
04 - Wolfman's Brother
05 - Maze
06 - Leaves
07 - Life Saving Gun
08 - Dirt
09 - Carini

Set 2:
10 - Tuning
11 - Sand >
12 - Tweezer >
13 - My Friend, My Friend >
14 - Mike's Song >
15 - Lifeboy
16 - Weekapaug Groove
17 - Blaze On >
18 - Fluffhead

Encore:
19 - Encore Break
20 - Farmhouse
21 - Run Like An Antelope


SHNTOOL OUTPUT:
    length     expanded size    cdr  WAVE problems  fmt   ratio  filename
     1:38.130      56522912 B   cxx   --   ---xx   flac  0.4773  01 Introduction.flac
    14:16.592     493397072 B   cxx   --   ---xx   flac  0.5212  02 Everything's Right.flac
     7:57.890     275264768 B   cxx   --   ---xx   flac  0.5233  03 Back On The Train.flac
    16:33.757     572404244 B   cxx   --   ---xx   flac  0.5161  04 Wolfman's Brother.flac
     9:27.714     327003518 B   cxx   --   ---xx   flac  0.5223  05 Maze.flac
    10:21.315     357877592 B   cxx   --   ---xx   flac  0.5056  06 Leaves.flac
    17:19.209     598584680 B   cxx   --   ---xx   flac  0.5355  07 Life Saving Gun.flac
     4:43.286     163172582 B   cxx   --   ---xx   flac  0.4781  08 Dirt.flac
     8:58.768     310330556 B   cxx   --   ---xx   flac  0.5380  09 Carini.flac
     0:43.953      25317158 B   cxx   --   ---xx   flac  0.4594  10 Tuning.flac
    19:20.667     668544128 B   cxx   --   ---xx   flac  0.5172  11 Sand.flac
    25:16.797     873675380 B   cxx   --   ---xx   flac  0.5211  12 Tweezer.flac
     9:48.663     339070094 B   cxx   --   ---xx   flac  0.5248  13 My Friend, My Friend.flac
     8:16.437     285947570 B   cxx   --   ---xx   flac  0.5240  14 Mike's Song.flac
    10:04.559     348226148 B   cxx   --   ---xx   flac  0.4751  15 Lifeboy.flac
     6:24.089     221235446 B   cxx   --   ---xx   flac  0.5262  16 Weekapaug Groove.flac
     9:38.670     333314228 B   cxx   --   ---xx   flac  0.5158  17 Blaze On.flac
    16:16.212     562298168 B   cxx   --   ---xx   flac  0.5176  18 Fluffhead.flac
     4:19.991     149755112 B   cxx   --   ---xx   flac  0.4724  19 Encore Break.flac
     6:21.339     219651146 B   cxx   --   ---xx   flac  0.4761  20 Farmhouse.flac
    10:30.829     363357542 B   cxx   --   ---xx   flac  0.5202  21 Run Like An Antelope.flac
   218:18.870    7544950044 B                            0.5156  (21 files)

ffp
01 Introduction.flac:69b90f3b25f29b15f51583b201f368f1
02 Everything's Right.flac:07443f9794a2db9461c520f5976d42eb
03 Back On The Train.flac:a109aa86ec90fa4a0698d6501fd4cab6
04 Wolfman's Brother.flac:81fa6d2b778d9488c632e6df0be36468
05 Maze.flac:2d028b1b760fc2bd5270877e0c50ba01
06 Leaves.flac:bbb1247fc452e102ed585ba4bf454275
07 Life Saving Gun.flac:54783090cc60afddaa97a482741c05ee
08 Dirt.flac:60e23f41f5e6b2b3c90c90c46eac0aa9
09 Carini.flac:c35db611b729edd3cb9d62bbaf5afc4c
10 Tuning.flac:6d6e86bb4f694809d5416f6b841dcd3c
11 Sand.flac:4b47b959fa5766fe04eff38cd3ddbae0
12 Tweezer.flac:0fdfb031e914001aad6d14f606428dd0
13 My Friend, My Friend.flac:66820a3d5f23b3edb05c8c5ba3998fb2
14 Mike's Song.flac:75142f5b0c3d98b484b72d0843b86789
15 Lifeboy.flac:9ba7ab5921d139c8a9d51ed4b9ec72b0
16 Weekapaug Groove.flac:e6876a9a90c2e7dfb2b4b8ac4f94ebc9
17 Blaze On.flac:ed6a2bf5b3ea44fe6dfa17f678e71745
18 Fluffhead.flac:26fafdba6fb668c3e4be5eb563ac6ecc
19 Encore Break.flac:de28288b0976af21ffad990341463c38
20 Farmhouse.flac:31c6a0cdcd47c8caea2b0cc7bb33cae3
21 Run Like An Antelope.flac:93e7bd7523e288d3b74a3bd20c14f37a

Comments
etreedb.org
For administrative requests email contact@etreedb.org
This website written by Tom H Anderson and maintained by the etreedb.org community.

Cached: Thu, 20 Jun 2024 11:55:43 EDT