Phish 04/19/24
Sphere, Las Vegas, NV
Source Summary
flac1648 Schoeps CMC6/MK4 > Sound Devices 744T (24-bit/96k) > Samplitude Pro X6 Suite (16-bit/48k) > FLAC/16 Recorded by Charlie Miller
Phish - April 19, 2024
Sphere - Las Vegas, NV

Recording Info:
Schoeps CMC6/MK4 > Sound Devices 744T (24-bit/96k) >
Samplitude Pro X6 Suite (16-bit/48k) > FLAC/16
(3 Discs Audio / 1 DVD FLAC)

Recorded by Charlie Miller
charliemiller87@earthlink.net
April 20, 2024

Notes:
-- The mics were in the aisle next to FOH
-- Mics were setup Section 207 Row 21 Seat 1

Set 1:
01 - Introduction >
02 - Free
03 - The Moma Dance
04 - Axilla II
05 - mercy
06 - Bathtub Gin
07 - Theme From The Bottom >
08 - Split Open And Melt

Set 2:
09 - Tuning
10 - A Wave Of Hope
11 - What's The Use? >
12 - Ruby Waves
13 - Lonely Trip
14 - A Song I Heard The Ocean Sing >
15 - Prince Caspian
16 - You Enjoy Myself

Encore:
17 - Encore Break
18 - Wading In The Velvet Sea
19 - Harry Hood


SHNTOOL OUTPUT:
    length     expanded size    cdr  WAVE problems  fmt   ratio  filename
     2:01.174      23265444 B   cxx   --   ---xx   flac  0.4294  01 Introduction.flac
    10:04.108     115988840 B   cxx   --   ---xx   flac  0.4908  02 Free.flac
     9:48.216     112937516 B   cxx   --   ---xx   flac  0.4837  03 Moma Dance.flac
    17:39.739     203470024 B   cxx   --   ---xx   flac  0.4846  04 Axilla II.flac
     6:08.561      70763784 B   cxx   --   ---xx   flac  0.4027  05 mercy.flac
    14:18.185     164771504 B   cxx   --   ---xx   flac  0.4902  06 Bathtub Gin.flac
    13:42.584     157936240 B   cxx   --   ---xx   flac  0.4790  07 Theme From The Bottom.flac
    16:24.432     189010984 B   cxx   --   ---xx   flac  0.4859  08 Split Open And Melt.flac
     0:56.349      10819012 B   cxx   --   ---xx   flac  0.3891  09 Tuning.flac
    19:03.138     219482468 B   cxx   --   ---xx   flac  0.4949  10 A Wave Of Hope.flac
     7:42.568      88813180 B   cxx   --   ---xx   flac  0.4515  11 What's The Use.flac
    13:40.631     157561108 B   cxx   --   ---xx   flac  0.4990  12 Ruby Waves.flac
     6:54.630      79608976 B   cxx   --   ---xx   flac  0.3846  13 Lonely Trip.flac
    11:02.746     127247320 B   cxx   --   ---xx   flac  0.4851  14 A Song I Heard The Ocean Sing.flac
     8:40.812      99995940 B   cxx   --   ---xx   flac  0.4799  15 Prince Caspian.flac
    17:23.713     200392844 B   cxx   --   ---xx   flac  0.4787  16 You Enjoy Myself.flac
     3:03.862      35301536 B   cxx   --   ---xx   flac  0.4340  17 Encore Break.flac
     7:24.329      85311136 B   cxx   --   ---xx   flac  0.4675  18 Wading In The Velvet Sea.flac
    14:15.223     164202940 B   cxx   --   ---xx   flac  0.4852  19 Harry Hood.flac
   200:15.000    2306880796 B                            0.4767  (19 files)

ffp
01 Introduction.flac:bb024a1099852a4c2ff313f096d48dc5
02 Free.flac:2a2823d0fefcf206ab19dd40ef320c15
03 Moma Dance.flac:61a2970d5c14acc222d34299ca50dfcf
04 Axilla II.flac:80749b00cbc09790818c6196a92b53d0
05 mercy.flac:7bd71d4328c5641b167a64b2a172f7b4
06 Bathtub Gin.flac:1b9cc39e48eac270ea4359bff428111e
07 Theme From The Bottom.flac:c7de88dd4b02bdfc52461bfe72d9cfb8
08 Split Open And Melt.flac:68da3e43dfc9288a24239c36ed38c9d9
09 Tuning.flac:adc5ff4084143fa4a27b0159f6d01972
10 A Wave Of Hope.flac:6b9971e39c8e6be78ea440dc6e5c45ba
11 What's The Use.flac:c4b189965b33d293a62d39649cd2ed99
12 Ruby Waves.flac:7ecd616e1bddae2780aa7ac197e663b1
13 Lonely Trip.flac:4bb3ebfb055b5bb21d445b96e58955c5
14 A Song I Heard The Ocean Sing.flac:1cb20c8ec8db0239c5aeefab5884a856
15 Prince Caspian.flac:ac8acbada635d6fb8f71b4ef4210f758
16 You Enjoy Myself.flac:31e5fe88d0419a7ffe9a9dee2f90e7ba
17 Encore Break.flac:c417aedcae570e5ec5c6940a83daf941
18 Wading In The Velvet Sea.flac:5e557eee9c44cec3b26474750ae257a4
19 Harry Hood.flac:a3df291c5a476c2ea1b4129080b9569e
ca584d46fdcc8ff9f43fe62872a57746 *01 Introduction.flac
55ba3648621c3c16810f7e2b34dde332 *02 Free.flac
930f11ef8175c935f41ff91df8ab7ff7 *03 Moma Dance.flac
42671602329bf0e3471f62955a6eae9d *04 Axilla II.flac
34b0d17ef3f0efb317e10b1a91ebc8d8 *05 mercy.flac
2e01f47b6a9c7b8ba62d889fef8698af *06 Bathtub Gin.flac
2229894c6d61795a13cd1d8ce8979f50 *07 Theme From The Bottom.flac
4b9acd8658f78008ad0cb1ac3eb9a9ea *08 Split Open And Melt.flac
b45066871da5c0486eafbe1e9b6cd01f *09 Tuning.flac
7552c36e015d064fe2922ccbb3b38525 *10 A Wave Of Hope.flac
b1dfccc311b879ced10ca8ce67f02790 *11 What's The Use.flac
04b52e022a44eb2e59b1d85921054c99 *12 Ruby Waves.flac
250397dfbe39353d0d6d63e32d972e3b *13 Lonely Trip.flac
93485334df15fce220013c6a7caa535c *14 A Song I Heard The Ocean Sing.flac
83e254ed28ff381f8df367d74fdb69fe *15 Prince Caspian.flac
b373601e210be1e6eeed3e5a6c00c346 *16 You Enjoy Myself.flac
0921c88da242301c1c75cd7b28d4a3cc *17 Encore Break.flac
e646fbd12bedc88ec2ef4c1e1fae7e65 *18 Wading In The Velvet Sea.flac
756f301890ea4fd9e928824c2e473c93 *19 Harry Hood.flac

Comments
etreedb.org
For administrative requests email contact@etreedb.org
This website written by Tom H Anderson and maintained by the etreedb.org community.

Cached: Thu, 20 Jun 2024 10:56:32 EDT