Phish 04/19/24
Sphere, Las Vegas, NV
Source Summary
flac2496 Schoeps CMC6/MK4 > Sound Devices 744T (24-bit/96k) > Samplitude Pro X6 Suite > FLAC/24 Recorded by Charlie Miller
Phish - April 19, 2024
Sphere - Las Vegas, NV

Recording Info:
Schoeps CMC6/MK4 > Sound Devices 744T (24-bit/96k) >
Samplitude Pro X6 Suite > FLAC/24
(1 DVD FLAC)

Recorded by Charlie Miller
charliemiller87@earthlink.net
April 20, 2024

Notes:
-- The mics were in the aisle next to FOH
-- Mics were setup Section 207 Row 21 Seat 1

Set 1:
01 - Introduction >
02 - Free
03 - The Moma Dance
04 - Axilla II
05 - mercy
06 - Bathtub Gin
07 - Theme From The Bottom >
08 - Split Open And Melt

Set 2:
09 - Tuning
10 - A Wave Of Hope
11 - What's The Use? >
12 - Ruby Waves
13 - Lonely Trip
14 - A Song I Heard The Ocean Sing >
15 - Prince Caspian
16 - You Enjoy Myself

Encore:
17 - Encore Break
18 - Wading In The Velvet Sea
19 - Harry Hood


SHNTOOL OUTPUT:
    length     expanded size    cdr  WAVE problems  fmt   ratio  filename
     2:01.174      69796250 B   cxx   --   ---xx   flac  0.4984  01 Introduction.flac
    10:04.108     347966438 B   cxx   --   ---xx   flac  0.5319  02 Free.flac
     9:48.216     338812466 B   cxx   --   ---xx   flac  0.5266  03 Moma Dance.flac
    17:39.739     610409990 B   cxx   --   ---xx   flac  0.5295  04 Axilla II.flac
     6:08.561     212291270 B   cxx   --   ---xx   flac  0.4875  05 mercy.flac
    14:18.185     494314430 B   cxx   --   ---xx   flac  0.5329  06 Bathtub Gin.flac
    13:42.584     473808632 B   cxx   --   ---xx   flac  0.5248  07 Theme From The Bottom.flac
    16:24.432     567032870 B   cxx   --   ---xx   flac  0.5306  08 Split Open And Melt.flac
     0:56.349      32456954 B   cxx   --   ---xx   flac  0.4702  09 Tuning.flac
    19:03.138     658447316 B   cxx   --   ---xx   flac  0.5342  10 A Wave Of Hope.flac
     7:42.568     266439458 B   cxx   --   ---xx   flac  0.5123  11 What's The Use.flac
    13:40.631     472683236 B   cxx   --   ---xx   flac  0.5392  12 Ruby Waves.flac
     6:54.630     238826846 B   cxx   --   ---xx   flac  0.4727  13 Lonely Trip.flac
    11:02.746     381741878 B   cxx   --   ---xx   flac  0.5276  14 A Song I Heard The Ocean Sing.flac
     8:40.812     299987738 B   cxx   --   ---xx   flac  0.5246  15 Prince Caspian.flac
    17:23.713     601178450 B   cxx   --   ---xx   flac  0.5266  16 You Enjoy Myself.flac
     3:03.862     105904520 B   cxx   --   ---xx   flac  0.5015  17 Encore Break.flac
     7:24.329     255933320 B   cxx   --   ---xx   flac  0.5213  18 Wading In The Velvet Sea.flac
    14:15.223     492608738 B   cxx   --   ---xx   flac  0.5325  19 Harry Hood.flac
   200:15.000    6920640800 B                            0.5250  (19 files)

ffp
01 Introduction.flac:833038eca9605b352f35f84e8a6b33ca
02 Free.flac:081a2ffee05e90fa3473b5f1d10c4a48
03 Moma Dance.flac:eb67e259560d596b1b2b24ccc61077ab
04 Axilla II.flac:275b8e544f02a12e328b4a21c001ca7b
05 mercy.flac:010b2b015be75ef2a65ee2bf4c432376
06 Bathtub Gin.flac:1025afc91de4a37c805b5fadc5222b2f
07 Theme From The Bottom.flac:4d11195bbec0f779eb0b3d356d29f4b8
08 Split Open And Melt.flac:c0d52adaa5fcac9d3fb44ed5f84f0d58
09 Tuning.flac:50a1b79bf9982e4c89c7248f0b331490
10 A Wave Of Hope.flac:490d10b36984c434e030113a4b368625
11 What's The Use.flac:3064c63d3654d4d4a3c5a18855dd509e
12 Ruby Waves.flac:777fa87e6614c761c5a1444b13953e00
13 Lonely Trip.flac:35457acf1f0ed08b820ef4df605e9313
14 A Song I Heard The Ocean Sing.flac:4acb2000e2ea514b14cc7394ed997b53
15 Prince Caspian.flac:baf9263fa64bf90bc4510ce3ca739c56
16 You Enjoy Myself.flac:ab729a0021f36f010c8f83221744872a
17 Encore Break.flac:e35cbd6677afe5dbb67ebe90b7109424
18 Wading In The Velvet Sea.flac:45f85c7edbfd6185fffffdc6db377e93
19 Harry Hood.flac:4786d8c9b0700157a2ee9c945983bb90
f5a57ecea185dd9065cba04109c2ddc8 *01 Introduction.flac
7493e1846049840284873678228492f6 *02 Free.flac
e201da614ad99ae66d769e1ba1997ee4 *03 Moma Dance.flac
ad9555df568ec3040350c029423f566b *04 Axilla II.flac
b7aa1ce114b4a78472ebfde8ba8b0e1c *05 mercy.flac
bb05450ccf00f99f24675ed79795e32e *06 Bathtub Gin.flac
2f4d2118519d6d34344d2d53ddb7a9ff *07 Theme From The Bottom.flac
688ebbdfd7d2f5a9d2b89b1fbb370856 *08 Split Open And Melt.flac
dff8cc988ce4ee9ff316be7f92fa4b4c *09 Tuning.flac
68a78df6f00c6cbc610b8d2dda289600 *10 A Wave Of Hope.flac
47e3bb537bf6fa3353a94ddaf439d2eb *11 What's The Use.flac
074c550101f99e4888b8b2e40d216662 *12 Ruby Waves.flac
652754c229f6485280b0a82e7c037cb8 *13 Lonely Trip.flac
5e9623ff775e4f10aad70600c3c7bfbe *14 A Song I Heard The Ocean Sing.flac
9af4188622084ec68d6b548b153792ad *15 Prince Caspian.flac
869e53f5cb9a5baf8ec2cc32a21ceecf *16 You Enjoy Myself.flac
03fadd139ee127fb9ba487ea27ce7659 *17 Encore Break.flac
bf9edac9be7c5294166a5479b7ce4cf5 *18 Wading In The Velvet Sea.flac
11881f6c83af0047e64b790d83943617 *19 Harry Hood.flac

Comments
etreedb.org
For administrative requests email contact@etreedb.org
This website written by Tom H Anderson and maintained by the etreedb.org community.

Cached: Thu, 20 Jun 2024 12:12:57 EDT