Mickey Hart & Planet Drum 12/01/06
Warfield Theater, San Francisco, CA
Source # 95345
Entered by Todd
Checksums md5 , ffp
Disc Counts 0 / 0
Media Size
Date Circulated
Date Added

10/17/2008
Source Summary
flac24;Recording Info:Schoeps CMC6/MK4 -> Sound Devices 744T (24bit/48k); Transfer Info:Sound Devices 744T -> Samplitude Professional v10.1 -> FLAC/24; Recorded and Mastered By Charlie Miller
Planet Drum - December 1, 2006
Warfield Theatre - San Francisco, CA

Recording Info:
Schoeps CMC6/MK4 -> Sound Devices 744T (24bit/48k)

Transfer Info:
Sound Devices 744T -> Samplitude Professional v10.1 -> FLAC/24
(1 DVD FLAC)

Recorded and Mastered By Charlie Miller
charliemiller87@earthlink.net

Notes:
-- Mics were front row center balcony in front of soundboard

Setlist:
d1t01 - Wavy Gravy Introduction
d1t02 -
d1t03 -
d1t04 -
d1t05 -
d1t06 -
d1t07 -
d1t08 -

Lineup:
Mickey Hart - drums
Sikiru Adepoju - Talking Drum, percussion
Zakir Hussain - Tabla, percussion
Giovanni Hidalgo - percussion


SHNTOOL OUTPUT:
    length     expanded size   cdr  WAVE problems filename
     3:31.467      60902444    cxx   --   -----   planetdrum2006-12-01d1t01.wav
    12:05.160     208846124    cxx   --   -----   planetdrum2006-12-01d1t02.wav
     6:08.693     106183724    cxx   --   -----   planetdrum2006-12-01d1t03.wav
     8:04.560     139553324    cxx   --   -----   planetdrum2006-12-01d1t04.wav
     7:21.347     127107884    cxx   --   -----   planetdrum2006-12-01d1t05.wav
     8:05.480     139818284    cxx   --   -----   planetdrum2006-12-01d1t06.wav
     8:37.413     149015084    cxx   --   -----   planetdrum2006-12-01d1t07.wav
     9:58.507     172369934    cxx   --   -----   planetdrum2006-12-01d1t08.wav
    63:52.627    1103796802 B                     (totals for 8 files)
md5
0379fd57d8fd1023207c24d70eb7fbb1 *planetdrum2006-12-01d1t01.flac
87c94ac73075e70e4e8df1d8e069c44c *planetdrum2006-12-01d1t02.flac
c17ec24965ea024b35f14ae4861d9b6d *planetdrum2006-12-01d1t03.flac
c27cf92712c319994289b155c3291bab *planetdrum2006-12-01d1t04.flac
ab7de42f096336eea16b11acadc01c00 *planetdrum2006-12-01d1t05.flac
e61297eb24e5ea37d461499b9b0c3e9e *planetdrum2006-12-01d1t06.flac
da88de7cf54cfe78647ab043633e3323 *planetdrum2006-12-01d1t07.flac
fb2934990a8fc291d2ba0b92a573eb49 *planetdrum2006-12-01d1t08.flac
ffp
planetdrum2006-12-01d1t01.flac:5c4ed19166315b251d6407b5a87f71e6
planetdrum2006-12-01d1t02.flac:8773678bde33f9eb76ab91ce26d9cd52
planetdrum2006-12-01d1t03.flac:5d0916e5e45f16fea38453e514ad860b
planetdrum2006-12-01d1t04.flac:17e4dc56ee8da6bf5e7f09dc4dd05a66
planetdrum2006-12-01d1t05.flac:52158bb1dcf9584c4fffa42806d6bf7f
planetdrum2006-12-01d1t06.flac:5544ba3115fd17da6d1ea99feb3e78e6
planetdrum2006-12-01d1t07.flac:16e774e1ae565101db73c8695cb572b7
planetdrum2006-12-01d1t08.flac:731c00b05e90d69847ea4bf49b2703aa

Comments
Other Sources (comments)
planetdrum2006-12-01.flac (0) flac16 ;Recording... (0)
Date User Comment
etreedb.org
For administrative requests email contact@etreedb.org
This website written by Tom H Anderson and maintained by the etreedb.org community.

Cached: Mon, 22 Jul 2024 20:02:11 EDT