Mickey Hart & Planet Drum 12/01/06
Warfield Theater, San Francisco, CA
Source # 95347
Entered by Todd
Checksums ffp , flac-md5
Disc Counts 1 / 1
Media Size
Date Circulated
Date Added

10/18/2008
Source Summary
flac16;Recording Info:Schoeps CMC6/MK4 -> Sound Devices 744T (24bit/48k); Transfer Info:Sound Devices 744T -> Samplitude Professional v10.1 -> FLAC/16; Recorded and Mastered By Charlie Miller
Planet Drum - December 1, 2006
Warfield Theatre - San Francisco, CA

Recording Info:
Schoeps CMC6/MK4 -> Sound Devices 744T (24bit/48k)

Transfer Info:
Sound Devices 744T -> Samplitude Professional v10.1 -> FLAC/16
(1 Disc Audio / 1 Disc FLAC)

Recorded and Mastered By Charlie Miller
charliemiller87@earthlink.net

Notes:
-- Mics were front row center balcony in front of soundboard

Setlist:
d1t01 - Wavy Gravy Introduction
d1t02 -
d1t03 -
d1t04 -
d1t05 -
d1t06 -
d1t07 -
d1t08 -

Lineup:
Mickey Hart - drums
Sikiru Adepoju - Talking Drum, percussion
Zakir Hussain - Tabla, percussion
Giovanni Hidalgo - percussion


SHNTOOL OUTPUT:
    length     expanded size   cdr  WAVE problems filename
     3:31.34       37300412    ---   --   -----   planetdrum2006-12-01d1t01.wav
    12:05.12      127918268    ---   --   -----   planetdrum2006-12-01d1t02.wav
     6:08.52       65037548    ---   --   -----   planetdrum2006-12-01d1t03.wav
     8:04.42       85476428    ---   --   -----   planetdrum2006-12-01d1t04.wav
     7:21.26       77853596    ---   --   -----   planetdrum2006-12-01d1t05.wav
     8:05.36       85638716    ---   --   -----   planetdrum2006-12-01d1t06.wav
     8:37.31       91271756    ---   --   -----   planetdrum2006-12-01d1t07.wav
     9:58.39      105578972    ---   --   -----   planetdrum2006-12-01d1t08.wav
    63:52.47      676075696 B                     (totals for 8 files)
ffp
planetdrum2006-12-01d1t01.flac:53e74666fd59133dc806eea34f8790bb
planetdrum2006-12-01d1t02.flac:c3aadd61dcf2906bd22969ef8f9e9356
planetdrum2006-12-01d1t03.flac:fd61a4621aaa6790638a6420b6e891c5
planetdrum2006-12-01d1t04.flac:9c7c5efef47e036338e71ab08cf14ed6
planetdrum2006-12-01d1t05.flac:1a9848ce6141bc59f10d565538e8490e
planetdrum2006-12-01d1t06.flac:6b92b3a1addfb18d70388217a44b4281
planetdrum2006-12-01d1t07.flac:9604edbdc87a2d445a7addce7dfc3d42
planetdrum2006-12-01d1t08.flac:b2acf6679709bc2c5a2a8815e7487b1e
b12fb4fe6557db0d3ec8b6160bf6bde8 *planetdrum2006-12-01d1t01.flac
35bdb01bfe902f2a618baec266985b32 *planetdrum2006-12-01d1t02.flac
56b047baa615ec893605ebfb3d395410 *planetdrum2006-12-01d1t03.flac
c756845e2cb292733d22049055ca109c *planetdrum2006-12-01d1t04.flac
78801d13e4b6c0f2cda910d38208f8ac *planetdrum2006-12-01d1t05.flac
b83bfb995d23d181624259d5ce921358 *planetdrum2006-12-01d1t06.flac
888daf646eea307fd6561dc50514fd17 *planetdrum2006-12-01d1t07.flac
e3906e7a08e5fe0719876c9ea1918b4d *planetdrum2006-12-01d1t08.flac

Comments
Other Sources (comments)
planetdrum2006-12-01.flac (0) flac24 ;Recording... (0)
Date User Comment
etreedb.org
For administrative requests email contact@etreedb.org
This website written by Tom H Anderson and maintained by the etreedb.org community.

Cached: Mon, 22 Jul 2024 18:19:16 EDT